#TITLE:Sin;
#SUBTITLE:;
#ARTIST:ESTi;
#TITLETRANSLIT:;
#SUBTITLETRANSLIT:;
#ARTISTTRANSLIT:;
#CREDIT:;
#BANNER:bn.jpg;
#BACKGROUND:bg.jpg;
#LYRICSPATH:;
#CDTITLE:!hr2title.png;
#MUSIC:18. SIN.mp3;
#OFFSET:-0.161;
#SAMPLESTART:22.784;
#SAMPLELENGTH:12.000;
#SELECTABLE:YES;
#BPMS:0.000=190.000;
#STOPS:;
#BGCHANGES:;
// cache tags:
#FIRSTBEAT:0.000;
#LASTBEAT:356.000;
#SONGFILENAME:Songs/Music V.I.P ^_^/Sin/SIN.sm;
#HASMUSIC:1;
#HASBANNER:1;
#MUSICLENGTH:118.987;
// end cache tags

//---------------dance-single - Copied from----------------
#NOTES:
     dance-single:
     Copied from:
     Hard:
     13:
     1.000,1.000,1.000,0.782,1.000,1010.000,164.000,93.000,0.000,1.000:
1010
0001
1000
0010
1000
0100
1000
0001
,
0110
1000
0010
0100
0010
0001
0010
1000
,
0101
1000
0100
0010
0100
0001
0100
1000
,
0101
0010
0001
0100
0001
1000
0001
0010
,
1001
0100
1000
0010
0101
0010
1100
0010
,
1001
0000
0010
0000
1100
0000
0010
0000
0101
0000
0010
0000
1100
0000
0010
0100
,
1001
0010
1100
0010
0101
0010
1100
0010
,
1001
0000
0001
0010
1100
0000
0010
0000
1001
0100
0010
0001
0110
1000
0100
1000
,
0011
0000
0100
0000
0010
0000
0100
0000
0001
1000
0100
0000
0010
0000
0100
0000
,
0011
1000
0100
0000
1001
0000
0010
0000
0100
0001
1000
0000
0110
0001
0100
0001
,
0110
1000
0011
0100
1010
0100
0001
0100
,
1010
0000
0000
0100
0000
0000
0001
0000
0000
0000
0000
0000
0010
0000
0000
0001
0000
0000
1000
0000
0000
0000
0000
0000
0110
0000
0000
1000
0000
0000
0001
0000
0000
0000
0000
0000
0010
0000
0000
0000
0000
0000
1000
0100
0010
0001
1000
0100
,
0010
0000
0000
0000
0000
0000
0001
0000
0000
0000
0000
0000
0100
0000
0000
0000
0000
0000
0001
0000
0000
0000
0000
0000
1000
0000
0000
0000
0000
0000
0001
0000
0000
0100
0000
0000
0010
0000
0000
0000
0000
0000
1000
0100
0000
0010
0000
0000
,
0001
0000
1000
0000
0010
0000
0001
0000
0100
0000
0010
0000
1000
0000
0000
0000
0011
0000
0100
0000
1000
0000
0010
0000
1100
0001
0010
0100
1000
0000
0000
0000
,
1000
0100
1000
0100
0001
0010
0001
0010
1000
0100
1000
0100
0001
0010
0001
0010
,
1000
0100
1000
0100
0001
0010
0001
0010
1000
0100
1000
0100
0001
0010
0001
0010
,
2000
3000
0000
0000
0000
0000
0000
0000
1000
0000
0000
0000
0010
0000
0000
0000
0100
0000
0000
0000
0001
0000
0000
0000
0020
0030
0000
0000
0000
0000
0000
0000
1000
0000
0000
0000
0010
0000
0000
0000
0100
0000
0000
0000
0001
0000
0000
0000
0020
0030
0000
0000
0000
0000
0000
0000
0000
0000
0000
0000
1000
0000
0000
0000
,
0000
0000
0000
0000
1000
0010
0100
0001
1000
0010
0100
0001
1000
0010
0100
0001
0000
0000
0000
0000
0000
0000
0000
0000
0000
0000
0000
0000
0000
0000
0000
0000
,
1100
0000
0001
1000
0100
0000
0011
0000
0000
0100
0001
0000
1100
0000
0001
0000
,
1100
0000
1100
0000
0001
0000
0110
0000
0000
0001
1000
0000
0010
0000
1100
0000
,
0011
0000
0100
0010
0100
0010
1100
0000
0000
1000
0100
0000
0011
0000
0010
0000
,
1100
0000
0000
0000
0000
0000
0000
0000
1100
0000
0000
0000
0000
0000
0000
0000
0001
0000
0000
0000
0000
0000
0000
0000
0110
0000
0000
0000
0000
0000
0000
0000
0000
0000
0000
0000
0001
0000
0000
0000
1000
0000
0000
0000
0000
0000
0000
0000
0101
0000
0000
0000
0000
0000
0000
0000
0220
0330
0000
0000
0000
0000
0000
0000
,
0220
0330
0000
0000
0001
0000
0000
0000
1000
0000
0000
0000
0000
0000
0000
0000
0010
0000
0000
0000
0000
0000
0000
0000
1100
0000
0000
0000
0001
0000
0000
0000
0000
0000
0000
0000
0010
0000
0000
0000
0100
0000
0000
0000
0000
0000
0000
0000
1001
0000
0000
0000
0100
0000
0000
0000
0000
0000
0000
0000
0001
0000
0000
0000
,
1100
0000
1100
0010
0001
1000
0110
0001
0100
0010
1000
0000
0100
0000
0011
0000
,
0011
0000
1000
0000
0011
0100
1001
0010
0000
0001
0010
0000
1100
0000
0010
0000
,
0011
0000
0000
0000
1100
0000
0000
0000
0001
0000
0000
0000
1010
0000
0000
0000
0100
0000
0010
0000
1000
0000
0100
0010
0001
1000
0100
0010
0000
0001
0000
1000
,
0001
0010
0001
0010
1100
0000
1000
0100
1000
0100
0011
0000
0001
0010
0001
0010
,
1100
0000
1000
0100
1000
0100
0011
0000
0001
0010
0001
0010
2100
0000
0000
0000
,
3001
0010
0100
0000
0001
0000
1010
0000
0000
0100
1000
0000
0011
0000
0010
0000
,
1000
0001
1100
0000
0001
0000
1000
0000
0000
0010
0100
0000
1001
0010
0100
1000
,
0012
0000
0100
0010
0100
0003
1010
0000
0001
0010
0001
0000
2001
0000
0010
0001
,
0010
0000
0000
3000
0000
0000
0120
0000
0000
0000
0000
0000
1000
0000
0000
0100
0000
0000
1030
0000
0000
0000
0000
0000
0101
0000
0000
1000
0000
0000
0100
0000
0000
0000
0000
0000
0011
0000
0000
0000
0000
0000
0001
0010
0100
1000
0001
0010
,
0100
0000
1000
0010
0100
0000
1001
0000
0000
0001
0010
0000
1001
0100
0010
0001
,
0010
0100
1000
0100
0010
0001
0010
0100
1001
0000
0000
0011
0100
0001
1100
0010
,
1001
0100
1000
0100
1000
0100
0011
0000
0000
1000
0011
0000
0100
0000
1000
0000
,
0011
0000
0000
0000
0011
0000
0000
0000
0100
0000
0000
0000
1000
0000
0100
0000
0010
0000
0001
0000
0110
0000
0000
0000
1000
0100
0001
0010
1100
0000
0000
0000
,
1100
0000
0000
0001
0000
0000
0100
0000
1000
0000
0000
0000
0001
0000
0000
0000
0010
0000
0000
1000
0000
0000
0000
0001
0000
0100
0000
0000
0000
1000
0000
0000
,
0000
0001
0000
0000
0010
0000
0000
1000
0000
0100
0000
0000
0022
0033
0000
0000
0110
0000
0000
0000
1001
0000
0000
0000
0110
0000
0000
0000
2002
3003
0000
0000
,
0001
0000
1000
0000
0010
0000
1000
0000
0010
0100
0010
0100
0010
0000
0000
0000
0001
0000
0000
0000
0001
0000
0000
0000
0110
0000
0000
0000
0000
0000
0000
0000
,
1000
0001
0100
0001
0010
0100
1000
0001
0100
0010
1000
0100
0010
0001
0100
0001
,
1000
0001
0100
0001
0010
0100
1000
0001
0100
0010
1000
0100
0010
0001
1000
0001
,
2000
0100
0010
0001
0100
0010
3002
0010
0100
1000
0010
0100
2003
0100
0010
0001
,
0100
0010
3001
0100
0010
0001
0010
0100
1000
0100
1000
0100
0010
0001
0100
0001
,
1000
0001
0100
0001
0010
0100
1000
0001
0100
0010
1000
0100
0010
0001
0100
0001
,
1000
0001
0100
0001
0010
0100
1000
0001
0100
0010
1000
0100
0010
0001
1000
0001
,
2000
0100
0010
0001
0100
0010
3002
0010
0100
1000
0010
0100
2003
0100
0010
0001
,
0100
0010
3002
0010
0100
1000
0010
0100
1003
0100
0010
0100
0001
1000
0100
0010
,
0002
0003
0000
0000
0000
0000
0000
0000
0002
0003
0000
0000
0000
0000
0000
0000
0002
0003
0000
0000
0000
0000
0000
0000
0002
0003
0000
0000
0000
0000
0000
0000
0000
0000
0000
0000
0000
0000
0000
0000
0002
0003
0000
0000
0000
0000
0000
0000
0002
0003
0000
0000
0000
0000
0000
0000
0000
0000
0000
0000
0000
0000
0000
0000
,
0020
0030
0000
0000
0000
0000
0000
0000
0020
0030
0000
0000
0000
0000
0000
0000
0020
0030
0000
0000
0000
0000
0000
0000
1100
0000
0000
0000
0000
0000
0000
0000
0011
0000
0000
0000
0000
0000
0000
0000
0200
0000
0300
0000
0002
0000
0003
0000
0200
0000
0300
0000
0000
0000
0000
0000
0200
0000
0300
0000
0000
0000
0000
0000
,
0200
0300
0000
0000
0200
0300
0000
0000
0200
0300
0000
0000
0200
0300
0002
0003
0200
0300
0000
0000
0200
0300
0002
0003
2000
3000
0000
0000
0001
0000
0000
0000
,
1000
1000
0100
0000
0001
0000
0010
0000
1100
0000
0010
0010
0010
0000
1100
0000
,
1000
0001
0100
0001
0010
0100
1000
0001
0100
0010
1000
0100
0010
0001
0100
0001
,
1000
0001
0100
0001
0010
0100
1000
0001
0100
0010
1000
0100
0010
0001
0100
0001
,
2000
0000
0000
0000
0010
0000
0010
0010
0001
0100
3010
0000
0001
0000
1000
0100
,
1000
0001
0100
0000
0010
0000
0100
0100
0010
0000
0001
0010
0100
0000
0010
0000
,
1000
0000
0001
0010
1000
0100
0001
0000
1000
0100
0001
0010
1000
0000
0000
0000
,
0000
0000
0000
0000
0001
0100
0010
1000
0001
0100
0010
1000
0001
0100
1000
0010
0200
0000
0000
0000
0000
0000
0000
0000
0000
0300
0000
0000
0000
0000
0000
0000
,
1001
0000
0000
0000
0000
0000
1000
0100
0010
0000
1000
0000
0100
0000
0010
0000
,
1100
0000
0101
0000
0011
0000
1001
0000
0110
0000
1010
0000
1100
0000
0010
0100
,
1000
0000
0000
0000
0000
0000
0100
0010
0001
0000
0110
0000
0011
0000
0110
0000
,
1010
0000
0101
0000
1010
0000
1001
0000
0101
0000
1001
0000
1010
0000
0001
0010
,
0100
0000
0000
0000
0000
0000
0010
0100
1000
0000
0110
0000
0011
0000
0110
0000
,
1001
0110
1001
1100
,
0011
0000
1000
0100
0010
0000
0110
0000
1010
0000
0101
0000
0110
0000
1100
0000
,
0011
0000
0000
1000
0000
0000
0100
0000
0000
0001
0000
0000
0010
0000
0000
0000
0000
0000
0000
0000
0000
0000
0000
0000
0011
0000
0000
0000
0000
0000
0000
0000
0000
0000
0000
0000
0000
0000
0000
0000
0000
0000
1000
0100
0010
0001
0010
0100
,
2000
3000
0200
0300
2000
3000
0020
0031
2100
3010
0002
0003
2000
3001
0020
0130
,
2001
3000
0200
0310
2000
3100
0002
0003
2000
3010
0200
0301
2000
0000
3100
0010
,
0002
0003
0020
1030
0002
0013
0200
0300
0012
0103
2000
3000
0002
1003
0200
0310
,
1002
0003
0020
0130
0002
0003
2000
3000
0102
1003
0020
0030
0002
0000
1203
0300
,
2001
3010
0200
0301
2000
3000
0020
0031
2000
3100
0002
0003
2000
3001
0020
0130
,
2000
3000
0200
0300
2000
3000
0002
0003
2000
3001
0200
0300
2000
3000
0100
0010
,
0001
0000
0001
0000
0001
0000
1000
0100
0001
0010
1000
0000
0001
0010
1000
0100
,
0001
0000
0000
0000
0001
0000
0000
0000
0001
0000
0000
0000
0001
0000
0000
0000
0001
0000
0000
0000
0001
0010
0100
1000
0001
0010
0100
1000
0001
0000
1000
0000
,
0110
0000
1010
0001
0010
0001
1100
0000
0100
0000
0001
0010
0001
0010
1000
0100
,
0010
0000
0010
0000
0010
0000
0100
0001
0100
0000
1000
0000
0011
0000
1001
0010
,
0001
0010
1100
0000
0010
0000
1100
0000
0100
0000
0001
0010
0001
0010
1000
0010
,
0100
0000
0100
0000
0100
0000
0010
1000
0010
0000
1000
0000
0101
0000
1001
0100
,
1000
0100
0011
0000
1000
0000
0011
0000
0010
0000
0001
0100
0001
0100
1000
0001
,
0010
0000
0010
0000
0010
0000
0001
1000
0001
0000
1000
0000
0011
0000
1001
0100
,
1000
0100
0011
0000
1000
0000
0011
0000
0010
0000
0001
1000
0001
1000
0100
0001
,
0010
0000
0010
0000
0010
0000
1000
0100
1000
0100
0010
0001
1000
0100
0010
0001
,
1010
0000
0100
0000
0010
0000
1000
0000
0101
1000
0010
1000
0100
0000
0001
0000
,
1010
0000
0100
0000
0010
0000
0001
0000
1010
0001
0100
0001
1000
0000
0001
0000
,
1010
0000
0100
0000
0010
0000
1000
0000
0101
1000
0010
1000
0100
0000
0001
0000
,
1010
0000
0100
0000
0010
0000
0001
0000
1010
0001
0100
0001
1000
0000
0001
0000
,
1010
0000
0100
0000
0010
0000
1000
0000
0101
1000
0010
1000
0100
0000
0001
0000
,
1010
0000
0100
0000
0010
0000
0001
0000
1010
0001
0100
0001
1000
0000
0100
0000
,
0001
0000
0001
0000
0001
0000
0001
0010
1000
0100
0001
0000
0001
0010
1000
0100
,
0001
0000
0001
0010
1000
0100
0001
0000
0001
0010
1000
0100
0002
0000
0000
0000
,
0003
0000
0000
0000
;
